<?xml version="1.0" standalone="no"?>
<!DOCTYPE svg PUBLIC "-//W3C//DTD SVG 1.1//EN" "http://www.w3.org/Graphics/SVG/1.1/DTD/svg11.dtd" >
<svg xmlns="http://www.w3.org/2000/svg">
<metadata></metadata>
<defs>
<font id="rokkittregular" horiz-adv-x="1196" >
<font-face units-per-em="2048" ascent="1638" descent="-410" />
<missing-glyph horiz-adv-x="430" />
<glyph horiz-adv-x="0" />
<glyph horiz-adv-x="0" />
<glyph unicode="&#xd;" horiz-adv-x="0" />
<glyph horiz-adv-x="0" />
<glyph unicode="&#x9;" horiz-adv-x="0" />
<glyph unicode="&#xa;" horiz-adv-x="0" />
<glyph unicode=" "  horiz-adv-x="430" />
<glyph unicode="&#x09;" horiz-adv-x="430" />
<glyph unicode="&#xa0;" horiz-adv-x="430" />
<glyph unicode="!" horiz-adv-x="466" d="M127 0v212h212v-212h-212zM147 832v364h172v-364l-42 -508h-88z" />
<glyph unicode="&#x22;" horiz-adv-x="665" d="M97 990v206h141v-206l-25 -244h-91zM426 990v206h141v-206l-25 -244h-92z" />
<glyph unicode="#" horiz-adv-x="1186" d="M77 325v102h204l52 302h-256v104h278l63 336h116l-62 -336h340l63 336h116l-62 -336h180v-104h-203l-52 -302h255v-102h-277l-60 -336h-115l57 336h-339l-60 -336h-114l56 336h-180zM397 427h340l53 302h-342z" />
<glyph unicode="$" horiz-adv-x="940" d="M60 354h149q8 -107 55.5 -162t146.5 -71v417q-319 84 -319 311q0 138 83.5 223t235.5 98v123h131v-123q135 -14 212.5 -97.5t77.5 -232.5q0 -26 -2 -42h-132q0 111 -35.5 165.5t-120.5 71.5v-393q64 -16 110 -32.5t92 -42.5t74 -58.5t45 -80t17 -107.5 q0 -142 -88.5 -228.5t-249.5 -101.5v-142h-131v142q-155 10 -253 101.5t-98 261.5zM232 857q0 -73 41.5 -113.5t137.5 -67.5v367q-85 -14 -132 -62.5t-47 -123.5zM542 123q202 32 202 184q0 86 -45.5 130.5t-156.5 69.5v-384z" />
<glyph unicode="%" horiz-adv-x="1579" d="M56 902q0 143 67.5 227t182.5 84q114 0 182 -84.5t68 -226.5q0 -141 -68 -225.5t-182 -84.5q-115 0 -182.5 84t-67.5 226zM195 902q0 -203 111 -203t111 203q0 202 -111 202t-111 -202zM253 0l950 1196h121l-943 -1196h-128zM1023 284q0 143 67 227t182 84t183 -84.5 t68 -226.5t-68 -226.5t-183 -84.5q-114 0 -181.5 84.5t-67.5 226.5zM1161 284q0 -203 111 -203t111 203q0 202 -111 202t-111 -202z" />
<glyph unicode="&#x26;" horiz-adv-x="1201" d="M56 375q0 240 286 360q-97 129 -97 221q0 109 83.5 184t204.5 75q118 0 199 -72t81 -178q0 -91 -62.5 -158t-204.5 -121l260 -354q76 121 107 291h230v-127h-129q-48 -175 -128 -273l73 -95h184v-128h-260l-86 115q-158 -134 -326 -134q-178 0 -296.5 112.5t-118.5 281.5 zM210 385q0 -108 79 -190.5t198 -82.5q127 0 233 107l-302 419q-208 -87 -208 -253zM385 963q0 -32 20 -70t69 -108q108 43 156.5 84.5t48.5 97.5q0 57 -41 90t-105 33q-66 0 -107 -34.5t-41 -92.5z" />
<glyph unicode="'" horiz-adv-x="337" d="M98 990v206h141v-206l-24 -244h-92z" />
<glyph unicode="(" horiz-adv-x="522" d="M58 416q0 289 120 484.5t313 284.5l7 -110q-68 -42 -116.5 -93t-87.5 -127.5t-58.5 -186t-19.5 -252.5t19.5 -252t58.5 -185t87.5 -127.5t116.5 -93.5l-7 -109q-193 88 -313 283t-120 484z" />
<glyph unicode=")" horiz-adv-x="522" d="M24 -242q68 42 116.5 93.5t87.5 127.5t58.5 185t19.5 252t-19.5 252.5t-58.5 186t-87.5 127.5t-116.5 93l6 110q193 -89 313.5 -284.5t120.5 -484.5q0 -148 -33.5 -275t-94 -221t-137.5 -161.5t-169 -109.5z" />
<glyph unicode="*" horiz-adv-x="916" d="M60 869l46 151l144 -46l185 -117l-55 212v146h156v-146l-55 -212l185 117l144 46l46 -151l-139 -49l-211 -13l160 -136l88 -121l-129 -92l-89 122l-78 198l-78 -198l-89 -122l-129 92l88 121l160 136l-211 13z" />
<glyph unicode="+" horiz-adv-x="1047" d="M57 485v117h404v392h124v-392h405v-117h-405v-392h-124v392h-404z" />
<glyph unicode="," horiz-adv-x="414" d="M101 0v212h212v-212q0 -119 -49 -177.5t-163 -59.5v87q58 14 82 46.5t24 103.5h-106z" />
<glyph unicode="-" horiz-adv-x="719" d="M101 340v144h517v-144h-517z" />
<glyph unicode="." horiz-adv-x="414" d="M101 0v212h212v-212h-212z" />
<glyph unicode="/" horiz-adv-x="793" d="M39 -40l584 1206h129l-584 -1206h-129z" />
<glyph unicode="0" horiz-adv-x="1004" d="M87 577q0 277 104 435.5t311 158.5q139 0 233 -75t138 -206.5t44 -312.5q0 -277 -104 -436.5t-311 -159.5t-311 159t-104 437zM241 577q0 -237 59 -356.5t201 -119.5q136 0 199 113.5t63 362.5q0 247 -63 360.5t-199 113.5q-73 0 -124 -32.5t-80.5 -96t-42.5 -147.5 t-13 -198z" />
<glyph unicode="1" horiz-adv-x="584" d="M62 1018v123l172 12h147q-2 -480 -2 -517l1 -513l155 -1v-122h-465v120l163 3q-3 424 -3 454q0 410 2 448q-3 -1 -78.5 -4t-91.5 -3z" />
<glyph unicode="2" horiz-adv-x="936" d="M71 0q0 220 166 420q106 128 282 222q80 42 119 94.5t39 122.5q0 89 -55.5 140.5t-163.5 51.5q-121 0 -171 -70.5t-50 -229.5h-137q-3 57 -3 80q0 165 99.5 252.5t259.5 87.5q83 0 150 -19t109 -49.5t70 -71.5t39.5 -82.5t11.5 -85.5q0 -117 -74.5 -202t-211.5 -158 q-123 -64 -209 -160q-40 -44 -73 -103t-43 -111h239q12 0 128 0.5t119 0.5l3 244h117v-374q-352 -3 -383 -3z" />
<glyph unicode="3" horiz-adv-x="953" d="M56 341l140 4q11 -115 82 -179.5t190 -64.5q120 0 185.5 59.5t65.5 155.5q0 102 -78 159t-206 60l-86 2v126h84q247 0 247 189q0 90 -54.5 144.5t-158.5 54.5q-100 0 -153 -54t-58 -151l-142 25q6 138 97 219t241 81q176 0 275.5 -79t99.5 -223q0 -88 -46.5 -159.5 t-127.5 -105.5q113 -37 167 -105.5t54 -174.5q0 -155 -111 -249t-305 -94q-183 0 -292.5 91.5t-109.5 268.5z" />
<glyph unicode="4" horiz-adv-x="875" d="M5 456l489 751h139v-750h192v-128h-192v-202l151 -8v-119h-462v119l161 8v202h-408zM163 457h320v506h-4z" />
<glyph unicode="5" horiz-adv-x="947" d="M67 322l137 3q20 -106 88 -165t173 -59q124 0 191.5 72t67.5 187q0 121 -66.5 186t-167.5 65q-139 0 -260 -94l-115 45l46 591h322h321v-231h-131v101h-391l-41 -381q90 91 262 91q171 0 273 -103t102 -269q0 -78 -25 -145.5t-74 -120.5t-129.5 -83.5t-184.5 -30.5 q-179 0 -283 90t-115 251z" />
<glyph unicode="6" horiz-adv-x="947" d="M86 571q0 282 107 441t318 159q149 0 240.5 -85.5t96.5 -227.5l-130 -1q-18 89 -78 141.5t-146 52.5q-73 0 -125.5 -36t-81.5 -100t-42 -139.5t-13 -166.5q48 51 128 81t166 30q156 0 249 -100t93 -255q0 -167 -99 -275.5t-265 -108.5q-140 0 -235 75.5t-139 205.5 t-44 309zM237 457q18 -177 77 -264t182 -87q109 0 171 70t62 179q0 103 -57 166t-162 63q-64 0 -142.5 -33t-130.5 -94z" />
<glyph unicode="7" horiz-adv-x="819" d="M56 869v284q346 3 375 3l386 -3q-1 -1 -2 -51t-2 -50q-125 -171 -230 -412.5t-139 -446.5q-2 -23 -4 -65l118 -2q-1 -1 -2.5 -62.5t-2.5 -63.5h-411q1 2 3 64.5t2 63.5h34q34 1 69 2h34q2 22 8 76q41 203 136.5 421.5t215.5 395.5h-230h-226l-3 -154h-129z" />
<glyph unicode="8" horiz-adv-x="1007" d="M82 314q0 206 218 285q-95 50 -139 116.5t-44 156.5q0 134 102.5 216.5t280.5 82.5q184 0 287.5 -81.5t103.5 -217.5q0 -89 -44 -154.5t-138 -116.5q106 -38 161 -111.5t55 -175.5q0 -152 -109.5 -242.5t-304.5 -90.5q-112 0 -196.5 26.5t-134 73.5t-74 105.5 t-24.5 127.5zM241 320q0 -97 69.5 -158t194.5 -61q124 0 192.5 61.5t68.5 157.5q0 103 -74 160.5t-211 57.5q-113 -6 -176.5 -65t-63.5 -153zM264 857q0 -94 64.5 -146.5t187.5 -52.5q112 5 170 58.5t58 141.5q0 90 -61.5 140t-182.5 50q-114 0 -175 -51t-61 -140z" />
<glyph unicode="9" horiz-adv-x="949" d="M80 785q0 168 100 277t269 109q203 0 308 -152t105 -435q0 -282 -107 -442.5t-315 -160.5q-150 0 -242 87.5t-97 229.5l130 2q13 -89 76.5 -144t149.5 -55q123 0 192 112.5t69 331.5q-47 -52 -127.5 -81.5t-167.5 -29.5q-153 0 -248 99.5t-95 251.5zM219 795 q0 -101 59 -163.5t162 -62.5q62 0 140.5 33t131.5 94q-17 179 -76 265t-181 86q-112 0 -174 -71t-62 -181z" />
<glyph unicode=":" horiz-adv-x="414" d="M101 0v212h212v-212h-212zM101 620v212h212v-212h-212z" />
<glyph unicode=";" horiz-adv-x="414" d="M101 0v212h212v-212q0 -119 -49 -177.5t-163 -59.5v87q58 14 82 46.5t24 103.5h-106zM101 620v212h212v-212h-212z" />
<glyph unicode="&#x3c;" horiz-adv-x="1109" d="M55 518v107l936 394v-128l-779 -319l779 -320v-128z" />
<glyph unicode="=" horiz-adv-x="1152" d="M112 297v117h928v-117h-928zM112 673v118h928v-118h-928z" />
<glyph unicode="&#x3e;" horiz-adv-x="1108" d="M117 124v128l779 320l-779 319v128l936 -394v-107z" />
<glyph unicode="?" horiz-adv-x="796" d="M54 872q0 90 30 158t80 107.5t109.5 58.5t125.5 19q145 0 242 -83.5t97 -219.5q0 -66 -17.5 -113t-45.5 -75.5t-62 -51.5t-69 -50t-64.5 -61.5t-50.5 -95t-25 -142.5h-85q0 6 -0.5 16t-0.5 15q0 92 15.5 160t40 106.5t54.5 65.5t59.5 46t54 40t40 55.5t15.5 84.5 q0 80 -56.5 131t-139.5 51q-100 0 -156 -60t-56 -169l1 -16h-134q-2 16 -2 23zM280 0v197h172v-197h-172z" />
<glyph unicode="@" horiz-adv-x="1674" d="M63 415q0 115 27.5 229.5t91 226.5t155 198t231.5 139t309 53q133 0 248 -36t197.5 -98.5t141 -146t87.5 -180t29 -199.5q0 -117 -42.5 -229t-111.5 -193.5t-159 -131.5t-181 -50q-88 0 -114 53q-26 32 -26 85v10l-2.5 -2.5l-3 -3l-2.5 -2.5q-120 -138 -265 -138 q-132 0 -220 108t-88 271q0 129 57.5 253.5t161.5 206t225 81.5q166 0 260 -160l30 138h139l-149 -692q-4 -12 -4 -24q0 -27 14.5 -43t38.5 -16q29 0 70.5 19.5t87.5 60.5t85 96t65 135t26 169q0 108 -39.5 205.5t-113.5 174t-190 122t-258 45.5q-200 0 -360.5 -93 t-250.5 -259t-90 -374q0 -302 189 -482t530 -180q402 0 596 262h135q-236 -371 -731 -371q-199 0 -357 57.5t-260 160t-155.5 241.5t-53.5 304zM508 366q0 -109 56 -181.5t141 -72.5q84 0 158.5 69t117 173t42.5 209q0 109 -57 177t-149 68q-62 0 -115 -32.5t-87.5 -82 t-59.5 -110.5t-36 -116.5t-11 -100.5z" />
<glyph unicode="A" d="M-13 0v125l138 2q185 618 293 914l-100 2v110h280h280v-110l-101 -2q48 -132 121.5 -360.5t123.5 -390.5l49 -163l137 -2v-125h-453v127h150l-75 297h-465l-74 -298h149v-126h-453zM405 545h385q-136 475 -155 496h-74q-8 -9 -47 -133t-74 -244z" />
<glyph unicode="B" horiz-adv-x="1047" d="M66 0v125l148 2l-3 450l3 449l-148 3v124h486q100 0 175 -24.5t117 -67t62.5 -93.5t20.5 -111q0 -88 -44.5 -153t-115.5 -97q96 -30 155.5 -106t59.5 -179q0 -45 -11 -86.5t-41 -86t-77.5 -76.5t-127.5 -52.5t-184 -20.5h-475zM374 532l1 -405q134 -1 165 -1 q146 0 210.5 52t64.5 154q0 87 -63.5 143.5t-205.5 56.5h-172zM374 661h163q117 0 171 52t54 134q0 92 -58 136t-191 44l-139 -1v-365z" />
<glyph unicode="C" horiz-adv-x="1249" d="M69 575q0 269 151.5 432.5t419.5 163.5q117 0 217 -40.5t170 -108.5v131h130v-349h-125q-57 114 -157 173t-227 59q-185 0 -293.5 -128t-108.5 -328q0 -197 112 -328.5t296 -131.5q53 0 102.5 8.5t99.5 30.5t89 55t68.5 85.5t39.5 118.5l135 -71q-37 -168 -181.5 -267 t-363.5 -99q-262 0 -418 164t-156 430z" />
<glyph unicode="D" horiz-adv-x="1271" d="M59 0v125l161 2q-2 419 -2 450l2 449l-161 3v124q518 1 554 1q132 0 236 -33.5t168.5 -88t106.5 -130t58.5 -152.5t16.5 -163q0 -136 -34 -241.5t-104.5 -184t-187 -120t-274.5 -41.5h-540zM380 577l2 -450q191 -1 223 -1q429 0 429 455q0 98 -23 177t-72 140.5t-133 95 t-197 33.5l-229 -1v-449z" />
<glyph unicode="E" horiz-adv-x="1119" d="M60 0v127h156v450v452h-156v124h498h473v-321h-131v194h-525v-371h362l13 114h87v-359h-88l-13 116h-359v-399h525v201h129v-328h-473h-498z" />
<glyph unicode="F" horiz-adv-x="1006" d="M62 0v127h152v450v452h-152v124h917v-321h-132v194h-473v-369h407v-129h-406v-402h156v-126h-469z" />
<glyph unicode="G" horiz-adv-x="1294" d="M67 580q0 83 18.5 163.5t62.5 159t109.5 137t167.5 95t228 36.5q117 0 217.5 -40.5t169.5 -108.5v131h130v-349h-124q-58 114 -158 173t-226 59q-195 0 -306 -127t-111 -330q0 -204 113 -332t319 -128q192 0 281 78.5t101 238.5h-227v127h407q-3 -153 -47 -267.5 t-121 -182t-175.5 -100t-219.5 -32.5q-103 0 -190.5 21.5t-149 57t-109.5 85.5t-77.5 103t-48.5 113.5t-26.5 113t-7.5 105.5z" />
<glyph unicode="H" horiz-adv-x="1294" d="M72 0v127h139v450v452h-139v124h443v-127h-144v-359h551v360h-142v126h442v-127h-139v-449v-452h139v-125h-442v127h143v411h-551v-412h143v-126h-443z" />
<glyph unicode="I" horiz-adv-x="581" d="M75 0v127h134v450v452h-134v124h428v-127h-132v-449v-451h132v-126h-428z" />
<glyph unicode="J" horiz-adv-x="557" d="M-64 -141q51 -24 120 -24q76 0 109.5 39t33.5 122l-2 498l3 535h-158v124h471v-127h-153v-1048q0 -80 -24.5 -139t-66.5 -90t-88 -45t-98 -14q-73 0 -147 26v143z" />
<glyph unicode="K" horiz-adv-x="1139" d="M64 0v125l150 2l-2 450l2 449l-150 3v124h466v-126l-155 -1l-1 -408l209 202l212 206l-136 1v126h451v-124l-129 -3l-222 -223l-199 -198l430 -478l131 -2v-125h-466v126l128 1l-212 239l-197 221l1 -460l139 -1v-126h-450z" />
<glyph unicode="L" horiz-adv-x="984" d="M59 0v127h158v450v452h-158v124h474v-127h-155v-899h410v355h145v-482h-425h-449z" />
<glyph unicode="M" horiz-adv-x="1577" d="M65 0v127h148v450v452h-148v124h385l168 -417l165 -419l338 836h390v-127h-147v-449v-452h147v-125h-428v127h133v896l-209 -516l-206 -517h-42l-206 517l-206 515v-896h133v-126h-415z" />
<glyph unicode="N" horiz-adv-x="1322" d="M56 0v127h169v450v452h-169v124h382l548 -928v802h-165v126h472v-127h-173v-515v-521h-173l-588 1003v-867h169v-126h-472z" />
<glyph unicode="O" horiz-adv-x="1321" d="M66 575q0 168 70.5 302.5t207 214t316.5 79.5q136 0 249 -46.5t188.5 -127t117 -189.5t41.5 -233t-41.5 -232.5t-117 -188.5t-188.5 -126.5t-249 -46.5t-248.5 46t-187.5 126.5t-116.5 189t-41.5 232.5zM243 575q0 -194 116 -325.5t301 -131.5q124 0 220 61.5t147 165 t51 230.5q0 197 -115.5 329t-302.5 132q-123 0 -219 -61.5t-147 -166.5t-51 -233z" />
<glyph unicode="P" horiz-adv-x="1030" d="M63 0v127h151v450v452h-151v124h533q77 0 140 -14.5t105 -41t72.5 -59.5t47 -73.5t24 -79t7.5 -80.5q0 -103 -34 -174t-100 -109t-146.5 -54t-189.5 -16h-146v-326h158v-126h-471zM374 577h178q152 0 213.5 60.5t61.5 169.5q0 106 -59.5 163t-166.5 57h-227v-450z" />
<glyph unicode="Q" horiz-adv-x="1323" d="M67 575q0 168 70.5 302.5t207 214t316.5 79.5q136 0 249 -46.5t188.5 -127t117 -189.5t41.5 -233q0 -231 -143.5 -393t-387.5 -187q22 -7 89 -33.5t113 -38t93 -11.5q30 0 59 8l-58 -148q-21 -5 -52 -5q-48 0 -101.5 21t-94.5 45.5t-94 45.5t-99 21q-117 0 -212 -53 l-51 107q107 55 195 55q-208 47 -327 202t-119 364zM244 575q0 -198 115.5 -330t301.5 -132q187 0 302.5 132t115.5 330q0 197 -115.5 329t-302.5 132q-123 0 -219 -61.5t-147 -166.5t-51 -233z" />
<glyph unicode="R" horiz-adv-x="1107" d="M57 0v127h163v450v452h-163v124h551q191 0 285.5 -79.5t94.5 -218.5q0 -117 -66 -194t-193 -103l234 -433h146v-125h-253l-283 538h-193v-411l156 -1v-126h-479zM380 667h223q63 0 107.5 16t68 43.5t34 59t10.5 69.5q0 83 -55.5 127.5t-151.5 44.5l-236 -1v-359z" />
<glyph unicode="S" horiz-adv-x="972" d="M88 859q0 148 102 230t259 82q146 0 264 -82l1 16l2 32v16h132v-327h-129q-2 80 -2 92q-93 123 -257 123q-109 0 -167.5 -45t-58.5 -119q0 -66 41 -105.5t109.5 -58t142 -33t153.5 -44t130 -77.5q48 -45 74 -109.5t26 -133.5q0 -144 -107 -239.5t-276 -95.5 q-170 0 -296 106q-1 0 -2 -40l-1 -40l-132 3v377h129q2 -95 2 -106q115 -170 286 -170q104 0 168 58t64 145q0 26 -6 48t-20 40t-28.5 32t-41 26.5t-46.5 21t-56 18t-59 15t-66 15.5q-59 13 -105 28.5t-90.5 42t-73.5 60.5t-47 84.5t-18 113.5z" />
<glyph unicode="T" horiz-adv-x="1034" d="M43 754v399h473h474v-399h-131v273h-259v-450v-451h154v-126h-472v127h155v450v450h-265v-273h-129z" />
<glyph unicode="U" horiz-adv-x="1211" d="M34 1029v124h452v-127h-142v-648q0 -132 66 -202t192 -70q147 0 206.5 70t59.5 213v638h-142v126h451v-124l-149 -3q2 -615 2 -646q0 -105 -33 -183.5t-91 -124.5t-131.5 -68.5t-160.5 -22.5q-103 0 -181 22.5t-125 59t-76 90t-39.5 108t-10.5 121.5q0 14 0.5 175 t1.5 317v155h-150z" />
<glyph unicode="V" horiz-adv-x="1208" d="M-21 1029v124h455v-127h-141l155 -409l162 -413l159 413l153 410h-141v126h445v-127h-146l-398 -1036h-154l-403 1039h-146z" />
<glyph unicode="W" horiz-adv-x="1759" d="M-20 1029v124h443v-127h-144l121 -403l124 -403l123 403l117 406h-140v124h519v-127h-139l119 -403l122 -403l125 403l119 404h-144v126h427v-127h-142l-310 -1036h-158l-286 938l-282 -938h-153l-316 1039h-145z" />
<glyph unicode="X" horiz-adv-x="1149" d="M18 0v127h161l313 455l-309 447h-154v124h462v-127h-135l222 -321l226 322h-140v126h446v-127h-151l-302 -431l328 -470h155v-125h-472v127h139l-236 343l-236 -344h144v-126h-461z" />
<glyph unicode="Y" horiz-adv-x="1130" d="M-18 1029v124h472v-127h-150l274 -378l257 379h-150v126h460v-127h-156l-343 -496v-404h164v-126h-483v127h159v403l-358 499h-146z" />
<glyph unicode="Z" horiz-adv-x="1010" d="M62 0v128l657 898h-498v-193h-129v320h413h419v-112l-667 -914h548v208h129v-335h-436h-436z" />
<glyph unicode="[" horiz-adv-x="569" d="M142 -329v747v749h399v-109h-251v-1280h251v-107h-399z" />
<glyph unicode="\" horiz-adv-x="793" d="M41 1166h129l584 -1206h-129z" />
<glyph unicode="]" horiz-adv-x="569" d="M28 -222h251v1280h-251v107h399v-747v-750h-399v110z" />
<glyph unicode="^" horiz-adv-x="826" d="M-12 580l371 616h113l366 -616h-151l-272 455l-276 -455h-151z" />
<glyph unicode="_" horiz-adv-x="1030" d="M66 -126h898v-78h-898v78z" />
<glyph unicode="`" horiz-adv-x="562" d="M92 1171h207l140 -257h-99z" />
<glyph unicode="a" horiz-adv-x="889" d="M55 216q0 254 347 254q93 0 193 -20v97q0 79 -54.5 116.5t-141.5 37.5q-127 0 -185 -84l-140 39q95 163 345 163q91 0 156.5 -21.5t101 -60t51.5 -83.5t16 -100v-433h144v-121h-277q-1 83 -2 83q-79 -58 -143 -81.5t-139 -23.5q-122 0 -197 70.5t-75 167.5zM196 216 q0 -55 40.5 -91t111.5 -36q67 0 134.5 24t112.5 65v174q-16 0 -79 8t-104 8q-45 0 -79 -5.5t-67.5 -21t-51.5 -47t-18 -78.5z" />
<glyph unicode="b" horiz-adv-x="1071" d="M23 0v121q137 2 149 2q-2 30 -2 457l2 449l-147 3v121h295q-1 -413 -1 -446q122 112 296 112q180 0 289 -117.5t109 -291.5q0 -183 -109.5 -306t-289.5 -123q-88 0 -166 32t-123 88q-1 0 -3 -51t-3 -51q-5 0 -148 0.5t-148 0.5zM323 343q0 -103 72.5 -170t187.5 -67 q124 0 197 85.5t73 221.5q0 138 -78.5 211.5t-187.5 73.5q-110 0 -182.5 -65t-81.5 -169v-121z" />
<glyph unicode="c" horiz-adv-x="899" d="M57 408q0 109 49 202t142.5 151t211.5 58q166 0 226 -86l1 72h133v-288h-129q-16 89 -68 131t-152 42q-121 0 -188 -77.5t-67 -202.5q0 -135 69 -217.5t190 -82.5q169 0 245 133l121 -55q-46 -100 -141.5 -153.5t-228.5 -53.5q-85 0 -155.5 25.5t-117.5 68t-79.5 98.5 t-47 115t-14.5 120z" />
<glyph unicode="d" horiz-adv-x="1071" d="M58 400q0 113 49 208t142.5 153t212.5 58q167 0 288 -106l-2 316l-160 3v121h310v-1032h152v-121h-304l-1 99q-122 -118 -286 -118q-79 0 -150.5 27.5t-127.5 78.5t-89.5 132.5t-33.5 180.5zM217 403q0 -133 71.5 -215t196.5 -82q117 0 191 69.5t74 177.5q0 3 -0.5 63 t-0.5 62q-11 99 -83.5 159.5t-182.5 60.5q-120 0 -193 -84t-73 -211z" />
<glyph unicode="e" horiz-adv-x="955" d="M55 402q0 182 126.5 299.5t316.5 117.5q96 0 173.5 -35.5t126.5 -96t74.5 -138.5t25.5 -167v-17l-337 -2l-342 2q16 -120 89 -189.5t198 -69.5q80 0 149.5 28.5t114.5 82.5l128 -56q-58 -86 -161 -133t-235 -47q-203 0 -325 120.5t-122 300.5zM223 467h269h262 q-17 102 -83.5 169.5t-170.5 67.5q-116 0 -187.5 -65t-89.5 -172z" />
<glyph unicode="f" horiz-adv-x="555" d="M56 683v122h129l1 133q0 121 62.5 184.5t169.5 63.5q77 0 128.5 -41.5t63.5 -115.5l-128 -25q-7 67 -57 67q-35 0 -55 -16t-27 -49t-8 -83v-35q0 -38 1 -83h153v-122h-153v-561h162v-122h-433v123h120v307v253h-129z" />
<glyph unicode="g" horiz-adv-x="1069" d="M58 392q0 86 29 164t81 136t129 92.5t167 34.5q160 0 283 -110l3 96h299v-120l-151 -3q1 -595 1 -625q0 -92 -25 -165t-66.5 -119.5t-99 -77t-117.5 -43t-126 -12.5q-179 0 -311 93l94 104q101 -73 230 -73q38 0 74 7.5t72.5 25.5t63.5 44.5t44.5 68t18.5 93.5 q0 2 -1.5 45t-1.5 45q-42 -39 -125.5 -66t-164.5 -27q-181 0 -290.5 113t-109.5 279zM217 396q0 -117 72 -194t196 -77q108 0 187.5 62.5t79.5 151.5v125q-4 95 -79.5 159t-184.5 64q-123 0 -197 -83.5t-74 -207.5z" />
<glyph unicode="h" horiz-adv-x="997" d="M21 0v123h152v454v455h-150v121h300q-1 -397 -1 -427q130 93 274 93q120 0 183 -67t63 -196l-1 -433l144 -2v-121h-394v121h102v407q0 174 -130 174q-117 0 -241 -91v-489h145v-122h-446z" />
<glyph unicode="i" horiz-adv-x="509" d="M59 0v124h135v561h-135v120h284v-683h136v-122h-420zM176 1066q0 37 26.5 62t64.5 25t65 -25t27 -62t-27 -62t-65 -25t-64.5 25t-26.5 62z" />
<glyph unicode="j" horiz-adv-x="441" d="M-60 -235q41 -4 77 -4q82 0 115.5 45t33.5 151l-3 394v334h-132v120h283v-375q1 -417 1 -426q0 -71 -4 -117t-20 -98.5t-45.5 -83t-83.5 -51t-131 -21.5q-53 0 -91 6v126zM143 1066q0 37 27 62t65 25t65 -25.5t27 -61.5t-27 -61.5t-65 -25.5t-65 25t-27 62z" />
<glyph unicode="k" horiz-adv-x="995" d="M20 0v122h153v455v455h-153v121h301v-723l329 261h-140v114h448v-114h-132l-332 -276l334 -293h130v-122h-421v122h106l-322 283v-283h104v-122h-405z" />
<glyph unicode="l" horiz-adv-x="487" d="M21 0v123h152v457v452h-149v121h298v-1031h133v-122h-434z" />
<glyph unicode="m" horiz-adv-x="1554" d="M58 0v123h150v309v253h-143v120h289q3 -89 5 -107q145 121 282 121q79 0 135 -36t83 -103q86 72 154.5 105.5t145.5 33.5q119 0 180 -69.5t61 -181.5l-3 -445l145 -2v-121h-385v124h93v413q0 157 -128 157q-121 0 -242 -143v-430h145v-121h-389v121h92v413 q0 155 -129 155q-59 0 -114.5 -34t-125.5 -104v-429h145v-122h-446z" />
<glyph unicode="n" horiz-adv-x="1031" d="M57 685v120h296q2 -87 4 -104q80 62 145.5 90t137.5 28q110 0 173.5 -69t63.5 -188l-3 -439l145 -2v-121h-402v120h110v387q0 93 -28 138.5t-97 45.5q-121 0 -245 -141v-428h145v-122h-439v123h143v562h-149z" />
<glyph unicode="o" horiz-adv-x="966" d="M57 402q0 178 117.5 297.5t309.5 119.5q191 0 308.5 -120t117.5 -297q0 -178 -118.5 -299.5t-309.5 -121.5q-190 0 -307.5 121.5t-117.5 299.5zM216 402q0 -124 73 -204t193 -80q122 0 195 80t73 204q0 125 -73.5 207t-194.5 82q-120 0 -193 -82t-73 -207z" />
<glyph unicode="p" horiz-adv-x="1058" d="M13 -244h153v467v462h-141v120h292q4 -106 5 -106q112 120 280 120q182 0 290.5 -120t108.5 -299q0 -176 -111.5 -297.5t-289.5 -121.5q-171 0 -286 106l1 -331l163 -1v-123h-465v124zM311 339q6 -101 78.5 -165t183.5 -64q128 0 200.5 81t72.5 214q0 125 -72 207 t-194 82q-112 0 -189 -67t-79 -168q-1 -2 -1 -120z" />
<glyph unicode="q" horiz-adv-x="1063" d="M58 402q0 178 108.5 297.5t290.5 119.5q170 0 282 -120l5 106h293v-123h-142v-927h152v-123h-464v121l164 3q-2 308 -3 334q-112 -109 -287 -109q-178 0 -288.5 121.5t-110.5 299.5zM212 403q0 -132 71.5 -212.5t200.5 -80.5q107 0 179.5 60t83.5 156q1 4 1 125 q0 104 -76.5 173.5t-193.5 69.5q-122 0 -194 -82t-72 -209z" />
<glyph unicode="r" horiz-adv-x="761" d="M58 685v120h283q5 -157 7 -175q39 94 109.5 141.5t157.5 47.5l119 -4l-5 -140q-5 3 -98 3q-140 0 -198 -76t-58 -222v-258h176v-122h-487v123h161v562h-167z" />
<glyph unicode="s" horiz-adv-x="809" d="M75 586q0 101 82 167t215 66q116 0 203 -42l1 7q2 7 3 14l1 7h126v-256h-126q-3 56 -3 67q-71 86 -199 86q-74 0 -118 -29.5t-44 -80.5q0 -23 12 -41t30.5 -29t49.5 -20t60.5 -14t71.5 -12q9 -1 13.5 -2t12 -2t13.5 -2q61 -10 106 -26t85 -43t61 -70.5t21 -102.5 q0 -111 -87 -179t-232 -68q-137 0 -223 59l-2 -40h-131v263h129q-1 -4 -1 -13q0 -69 58.5 -109.5t152.5 -40.5q86 0 134.5 31t48.5 86q0 57 -42.5 79.5t-135.5 34.5q-52 7 -92.5 15.5t-90.5 27.5t-83.5 44.5t-56.5 69t-23 98.5z" />
<glyph unicode="t" horiz-adv-x="528" d="M35 683v122h127v168l148 122v-290h163v-122h-163v-213q0 -264 4 -278q4 -74 81 -74q34 0 78 14v-127q-62 -16 -108 -16q-194 0 -201 192q-5 242 -5 281v221h-124z" />
<glyph unicode="u" horiz-adv-x="994" d="M32 685v120h272v-537q0 -81 29 -121.5t96 -40.5q68 0 132 39.5t112 104.5v433h-145v122h296v-684h146v-121h-292q-3 83 -5 100q-133 -119 -272 -119q-248 0 -248 280l2 421z" />
<glyph unicode="v" horiz-adv-x="960" d="M-2 685v120h411v-123h-116l98 -255l97 -246l97 246l98 256h-123v122h402v-123h-130l-274 -693h-136l-278 696h-146z" />
<glyph unicode="w" horiz-adv-x="1403" d="M2 685v120h354v-123h-116l87 -270l86 -255l90 256l87 272h-95v120h398v-123h-95l175 -525l90 255l88 271h-122v122h373v-123h-122l-234 -693h-142l-205 617l-212 -617h-143l-233 696h-109z" />
<glyph unicode="x" horiz-adv-x="989" d="M35 0v123h127l254 290l-243 272h-119v120h390v-123h-114l163 -182l157 183h-96v122h390v-123h-139l-233 -269l261 -292h115v-121h-396v124h125l-184 203l-173 -205h116v-122h-401z" />
<glyph unicode="y" horiz-adv-x="982" d="M-1 685v120h406v-123h-108l202 -520h20l86 270l75 251h-115v122h413v-123h-129l-216 -646q-68 -191 -93 -242q-54 -112 -131 -145q-43 -19 -100 -19q-33 0 -69.5 3t-56.5 7l-20 3l4 122q56 -10 110 -10q52 0 80.5 21t57 86.5t68.5 208.5l-95 -1l-264 615h-125z" />
<glyph unicode="z" horiz-adv-x="833" d="M54 0v116l525 575h-364v-154h-121v268h330h333v-122l-532 -568h401v161h128v-276h-350h-350z" />
<glyph unicode="{" horiz-adv-x="528" d="M18 353v117q54 0 88.5 17t52.5 53.5t24.5 81t6.5 111.5v6q0 81 1 120t7.5 99.5t21 89t40 60.5t67 45t99.5 13h68v-107q-105 0 -136.5 -31t-32.5 -138q0 -104 -3 -166t-12.5 -118t-29 -89t-49.5 -58.5t-78 -46.5q97 -43 134 -119.5t37 -239.5q0 -202 23 -245.5t147 -43.5 v-106h-67q-39 0 -70 7t-54.5 17t-41.5 30.5t-29.5 38t-20 50.5t-12.5 57t-6 68t-2.5 72.5t-0.5 82.5q0 56 -3.5 94t-14 74t-29 57.5t-50 34t-75.5 12.5z" />
<glyph unicode="|" horiz-adv-x="404" d="M141 -368v1534h122v-1534h-122z" />
<glyph unicode="}" horiz-adv-x="527" d="M34 -236q124 0 147 43.5t23 245.5q0 163 37 239.5t133 119.5q-34 15 -58.5 32t-43 36.5t-30.5 49t-20 60.5t-12 79.5t-5.5 97.5t-1.5 123q-1 107 -33 138t-136 31v107h68q69 -1 115 -24t69.5 -52t35 -94.5t13.5 -111t2 -142.5v-9q0 -67 6.5 -111.5t25 -81t53 -53.5 t88.5 -17v-117q-44 0 -75.5 -12.5t-50.5 -34t-29.5 -57.5t-14 -74.5t-3.5 -93.5q0 -81 -1.5 -121.5t-7.5 -99t-21 -87.5t-40.5 -60t-67 -43t-98.5 -12h-67v106z" />
<glyph unicode="~" horiz-adv-x="1062" d="M104 599q103 113 232 113q61 0 123 -20t104.5 -43.5t93 -43.5t90.5 -20q102 0 217 119l5 -148q-32 -28 -51 -42.5t-50 -33t-63.5 -26.5t-71.5 -8q-58 0 -117 20t-99 44t-92.5 44t-100.5 20q-61 0 -104.5 -26.5t-110.5 -92.5z" />
<glyph unicode="&#xa1;" horiz-adv-x="466" d="M127 984v212h212v-212h-212zM147 0v364l42 508h88l42 -508v-364h-172z" />
<glyph unicode="&#xa2;" horiz-adv-x="918" d="M55 418q0 184 119 309t279 125q47 0 95 -13l117 370h83l-128 -394q48 -16 86 -56v73h123v-315h-123q-8 68 -37 111t-86 69l-188 -580q37 -12 85 -12q84 0 152.5 44t109.5 130l114 -54q-52 -121 -151.5 -185.5t-225.5 -64.5q-63 0 -123 16l-118 -369h-82l130 397 q-106 55 -168.5 160t-62.5 239zM202 421q0 -91 32 -152t99 -112l176 562q-16 3 -45 3q-116 0 -189 -85.5t-73 -215.5z" />
<glyph unicode="&#xa3;" horiz-adv-x="993" d="M60 150q0 75 51.5 131.5t136.5 56.5q74 0 148 -47q1 12 1 36q0 117 -45 232h-254v87h211q-34 66 -56.5 148t-22.5 138q0 132 86 207t226 75q151 0 233 -85t82 -236h-139q4 15 4 41q-5 69 -46.5 115t-126.5 46q-81 0 -128.5 -40t-47.5 -114q0 -90 86 -295h219v-87h-184 q21 -80 21 -171q0 -88 -23 -173q6 -4 27 -17t28 -17t25.5 -14.5t27 -14.5t24.5 -11t26.5 -9.5t24 -5t26.5 -2.5q131 0 140 166h93q0 -146 -63.5 -227.5t-169.5 -81.5q-66 0 -121.5 28t-135.5 89q-80 -117 -189 -117q-95 0 -145 49.5t-50 119.5zM162 151q0 -36 21.5 -61 t63.5 -25q36 0 64.5 21.5t58.5 70.5q-80 90 -136 90q-32 0 -52 -29t-20 -67z" />
<glyph unicode="&#xa4;" horiz-adv-x="929" d="M112 519l82 82q-75 86 -75 205q0 115 73 201l-80 81l69 69l86 -86q88 53 197 53q107 0 198 -55l88 88l69 -69l-83 -83q72 -85 72 -199q0 -118 -74 -203l85 -84l-69 -68l-90 88q-86 -53 -196 -53t-195 52l-88 -87zM256 806q0 -89 59.5 -147.5t148.5 -58.5t148 58.5 t59 147.5q0 86 -59.5 143t-147.5 57q-89 0 -148.5 -57t-59.5 -143z" />
<glyph unicode="&#xa5;" horiz-adv-x="1261" d="M49 1029v124h472v-127h-150l274 -396l257 397h-150v126h460v-127h-156l-279 -404h235v-119h-299v-89h299v-117h-299v-171h164v-126h-483v127h159v170h-304v117h304v89h-304v119h238l-292 407h-146z" />
<glyph unicode="&#xa6;" horiz-adv-x="422" d="M150 263h122v-626h-122v626zM150 550v621h122v-621h-122z" />
<glyph unicode="&#xa7;" horiz-adv-x="877" d="M67 453q0 73 39.5 133t125.5 117q-65 39 -99.5 99t-34.5 133q0 117 92 199t229 82q143 0 238 -77t98 -230h-135q-7 91 -61.5 137.5t-145.5 46.5q-78 0 -129 -40.5t-51 -103.5q0 -48 32 -85.5t82.5 -62.5t112 -48t123 -49.5t112 -59t82.5 -84.5t32 -119q0 -150 -164 -253 q65 -38 100 -97t35 -129q0 -127 -91 -207.5t-234 -80.5q-154 0 -242 87t-88 227h136q2 -88 54.5 -137.5t142.5 -49.5q84 0 135.5 42t51.5 107q0 46 -32 82t-83 60.5t-112.5 47t-123 49t-112.5 59t-83 85t-32 120.5zM196 487q0 -33 15 -60.5t37.5 -46t60 -37.5t72 -32.5 t84.5 -34.5t88 -40q62 34 95 78.5t33 94.5q0 40 -19.5 70t-59 52.5t-79.5 38.5t-101.5 39.5t-104.5 44.5q-64 -40 -92.5 -79t-28.5 -88z" />
<glyph unicode="&#xa8;" horiz-adv-x="572" d="M43 1040q0 36 26.5 61.5t65.5 25.5q37 0 63.5 -25.5t26.5 -61.5q0 -37 -26 -62t-64 -25q-39 0 -65.5 25t-26.5 62zM347 1040q0 36 26.5 61.5t63.5 25.5q38 0 65 -25.5t27 -61.5q0 -37 -27 -62t-65 -25t-64 25t-26 62z" />
<glyph unicode="&#xa9;" horiz-adv-x="1423" d="M63 634q0 132 51 252t138 207t207 138t252 51q133 0 253 -51t207 -138t138 -207t51 -252q0 -133 -51 -253t-138 -207t-207 -138t-253 -51q-132 0 -252 51t-207 138t-138 207t-51 253zM170 634q0 -147 72.5 -272t197 -198t271.5 -73t272 73t197.5 198t72.5 272 t-72.5 271.5t-197.5 197t-272 72.5t-271.5 -72.5t-197 -197t-72.5 -271.5zM372 632q0 169 93.5 267t254.5 98q112 0 188.5 -52.5t105.5 -149.5l-102 -25q-26 63 -76.5 97.5t-119.5 34.5q-103 0 -164 -74t-61 -199q0 -124 58 -195t159 -71q79 0 135.5 44.5t76.5 120.5 l106 -31q-26 -110 -109.5 -173t-203.5 -63q-155 0 -248 101t-93 270z" />
<glyph unicode="&#xaa;" horiz-adv-x="696" d="M78 851q0 69 57.5 115.5t142.5 46.5q73 0 146 -43v69q0 44 -31 69t-89 25q-77 0 -116 -61l-101 27q68 116 233 116q207 0 207 -160v-266h92v-88h-185v62q-76 -71 -172 -71q-77 0 -130.5 46t-53.5 113zM181 852q0 -37 27.5 -59.5t71.5 -22.5q74 0 144 60v58 q-68 49 -137 49q-47 0 -76.5 -24t-29.5 -61z" />
<glyph unicode="&#xab;" horiz-adv-x="904" d="M62 418l263 419h143l-258 -419l258 -418h-143zM431 418l265 419h142l-257 -419l257 -418h-142z" />
<glyph unicode="&#xac;" horiz-adv-x="1113" d="M56 724v118h937v-538h-117v420h-820z" />
<glyph unicode="&#xad;" horiz-adv-x="719" d="M101 340v144h517v-144h-517z" />
<glyph unicode="&#xae;" horiz-adv-x="1429" d="M63 631q0 178 87 327.5t237 236.5t328 87q177 0 327 -87t237.5 -237t87.5 -327t-87.5 -327t-237.5 -237.5t-327 -87.5q-178 0 -328 87.5t-237 237.5t-87 327zM162 631q0 -150 74 -277t201 -201t277 -74q112 0 214.5 44t176.5 118t118 176t44 214t-44 214.5t-118 176 t-176.5 117t-214.5 43.5q-150 0 -277 -73.5t-201 -200.5t-74 -277zM437 273v696h299q114 0 175 -54t61 -133q0 -80 -56.5 -135.5t-145.5 -59.5v-3q75 -27 138 -127q89 -152 104 -184h-127q-63 132 -104 193.5t-80 83.5t-101 22h-58v-299h-105zM542 660h145q172 0 172 113 q0 54 -37.5 81t-122.5 27h-157v-221z" />
<glyph unicode="&#xaf;" horiz-adv-x="587" d="M31 1035v80h525v-80h-525z" />
<glyph unicode="&#xb0;" horiz-adv-x="653" d="M68 957q0 108 76 183.5t183 75.5t182.5 -75.5t75.5 -183.5q0 -107 -75.5 -183t-182.5 -76t-183 76t-76 183zM155 958q0 -71 49 -121t123 -50q71 0 121 49t50 122q0 68 -47 120t-124 52q-74 0 -123 -50t-49 -122z" />
<glyph unicode="&#xb1;" horiz-adv-x="1119" d="M91 -39v119h937v-119h-937zM91 656v119h411v408h115v-408h411v-119h-411v-409h-115v409h-411z" />
<glyph unicode="&#xb2;" horiz-adv-x="747" d="M87 318q0 161 120 305q77 94 206 162q115 61 115 158q0 65 -40.5 103t-119.5 38q-88 0 -124 -51.5t-36 -167.5h-100q-3 42 -3 58q0 121 73 184.5t189 63.5q75 0 131 -20.5t86.5 -54.5t45 -71.5t14.5 -78.5q0 -84 -55 -146.5t-154 -114.5q-90 -48 -152 -117 q-29 -32 -53 -75.5t-31 -80.5h174h181v179h86v-273l-279 -2z" />
<glyph unicode="&#xb3;" horiz-adv-x="783" d="M60 522l109 3q9 -91 64.5 -141t149.5 -50t145 46t51 121q0 81 -61 125.5t-161 46.5l-67 1v99h64q194 0 194 148q0 70 -42.5 113t-123.5 43q-79 0 -120 -42.5t-46 -117.5l-111 20q5 107 76.5 170.5t188.5 63.5q138 0 215.5 -62t77.5 -174q0 -69 -36 -124.5t-100 -83.5 q173 -56 173 -219q0 -121 -87 -194.5t-239 -73.5q-143 0 -228.5 71.5t-85.5 210.5z" />
<glyph unicode="&#xb4;" horiz-adv-x="562" d="M125 914l139 257h207l-247 -257h-99z" />
<glyph unicode="&#xb6;" horiz-adv-x="1096" d="M50 836q0 156 104 258t297 102h569v-140h-138v-1429h-135v1429h-201v-1429h-135v851q-168 7 -264.5 106t-96.5 252z" />
<glyph unicode="&#xb7;" horiz-adv-x="374" d="M101 482v197h172v-197h-172z" />
<glyph unicode="&#xb8;" horiz-adv-x="587" d="M168 -282q7 -1 20 -1q134 0 134 70q0 53 -83 59l27 159h72l-11 -74q52 -10 81 -45.5t29 -89.5q0 -72 -57 -114.5t-163 -42.5h-49v79z" />
<glyph unicode="&#xb9;" horiz-adv-x="476" d="M70 1060v89l125 9h107l-1 -376v-373l113 -1v-88h-337v88l117 1l-1 330l1 326z" />
<glyph unicode="&#xba;" horiz-adv-x="704" d="M68 951q0 114 81.5 189t203.5 75t203 -75t81 -189q0 -113 -81 -188.5t-203 -75.5t-203.5 75.5t-81.5 188.5zM180 951q0 -73 49.5 -121t123.5 -48q73 0 122 48t49 121q0 72 -49 119.5t-122 47.5q-74 0 -123.5 -47.5t-49.5 -119.5z" />
<glyph unicode="&#xbb;" horiz-adv-x="905" d="M66 0l257 418l-257 419h143l264 -419l-264 -418h-143zM437 0l257 418l-257 419h143l263 -419l-263 -418h-143z" />
<glyph unicode="&#xbc;" horiz-adv-x="1815" d="M75 1060v89l125 9h107l-1 -376v-373l113 -1v-88h-337v88l117 1l-1 330l1 326zM420 0l912 1196h89l-911 -1196h-90zM1123 349l385 564h100v-564h151v-91h-151v-159l119 -7v-93h-355v93l126 7v159h-320zM1247 349h251v373h-7z" />
<glyph unicode="&#xbd;" horiz-adv-x="1739" d="M69 1060v89l125 9h107l-1 -376v-373l113 -1v-88h-337v88l117 1l-1 330l1 326zM316 0l912 1196h89l-911 -1196h-90zM1105 1q0 161 120 305q77 94 206 162q115 61 115 158q0 65 -40.5 103t-119.5 38q-88 0 -124 -51.5t-36 -167.5h-100q-3 42 -3 58q0 121 73 184.5t189 63.5 q75 0 131 -20.5t86.5 -54.5t45 -71.5t14.5 -78.5q0 -84 -55 -146.5t-154 -114.5q-90 -48 -152 -117q-29 -32 -53 -75.5t-31 -80.5h174h181v179h86v-273l-279 -2z" />
<glyph unicode="&#xbe;" horiz-adv-x="1936" d="M65 522l109 3q9 -91 64.5 -141t149.5 -50t145 46t51 121q0 81 -61 125.5t-161 46.5l-67 1v99h64q194 0 194 148q0 70 -42.5 113t-123.5 43q-79 0 -120 -42.5t-46 -117.5l-111 20q5 107 76.5 170.5t188.5 63.5q138 0 215.5 -62t77.5 -174q0 -69 -36 -124.5t-100 -83.5 q173 -56 173 -219q0 -121 -87 -194.5t-239 -73.5q-143 0 -228.5 71.5t-85.5 210.5zM573 0l912 1196h89l-911 -1196h-90zM1244 350l385 564h100v-564h151v-91h-151v-159l119 -7v-93h-355v93l126 7v159h-320zM1368 350h251v373h-7z" />
<glyph unicode="&#xbf;" horiz-adv-x="796" d="M58 284q0 66 17.5 113t45.5 75.5t62 51.5t69 50t64.5 61.5t50.5 95t25 142.5h85q0 -6 0.5 -16t0.5 -15q0 -92 -15.5 -160t-40 -106.5t-54 -65.5t-59.5 -46t-54.5 -40t-40 -55.5t-15.5 -84.5q0 -80 56.5 -131t139.5 -51q100 0 156 60t56 169l-1 16h134q2 -16 2 -23 q0 -90 -30 -158t-80 -107.5t-109.5 -58.5t-125.5 -19q-145 0 -242 83.5t-97 219.5zM344 999v197h172v-197h-172z" />
<glyph unicode="&#xc0;" d="M-13 0v125l138 2q185 618 293 914l-100 2v110h280h280v-110l-101 -2q48 -132 121.5 -360.5t123.5 -390.5l49 -163l137 -2v-125h-453v127h150l-75 297h-465l-74 -298h149v-126h-453zM405 545h385q-136 475 -155 496h-74q-8 -9 -47 -133t-74 -244zM417 1488h207l140 -257 h-99z" />
<glyph unicode="&#xc1;" d="M-13 0v125l138 2q185 618 293 914l-100 2v110h280h280v-110l-101 -2q48 -132 121.5 -360.5t123.5 -390.5l49 -163l137 -2v-125h-453v127h150l-75 297h-465l-74 -298h149v-126h-453zM405 545h385q-136 475 -155 496h-74q-8 -9 -47 -133t-74 -244zM417 1231l139 257h207 l-247 -257h-99z" />
<glyph unicode="&#xc2;" d="M-13 0v125l138 2q185 618 293 914l-100 2v110h280h280v-110l-101 -2q48 -132 121.5 -360.5t123.5 -390.5l49 -163l137 -2v-125h-453v127h150l-75 297h-465l-74 -298h149v-126h-453zM332 1229l158 255h195l164 -255h-108l-153 150l-153 -150h-103zM405 545h385 q-136 475 -155 496h-74q-8 -9 -47 -133t-74 -244z" />
<glyph unicode="&#xc3;" d="M-13 0v125l138 2q185 618 293 914l-100 2v110h280h280v-110l-101 -2q48 -132 121.5 -360.5t123.5 -390.5l49 -163l137 -2v-125h-453v127h150l-75 297h-465l-74 -298h149v-126h-453zM306 1297q9 105 51.5 157t104.5 52q40 0 89.5 -25t95 -50t73.5 -25q62 0 77 95h78 q-7 -99 -48.5 -156t-110.5 -57q-35 0 -74.5 16t-68.5 34.5t-62.5 34.5t-56.5 16q-31 0 -46.5 -22.5t-21.5 -69.5h-80zM405 545h385q-136 475 -155 496h-74q-8 -9 -47 -133t-74 -244z" />
<glyph unicode="&#xc4;" d="M-13 0v125l138 2q185 618 293 914l-100 2v110h280h280v-110l-101 -2q48 -132 121.5 -360.5t123.5 -390.5l49 -163l137 -2v-125h-453v127h150l-75 297h-465l-74 -298h149v-126h-453zM347 1357q0 36 26.5 61.5t65.5 25.5q37 0 63.5 -25.5t26.5 -61.5q0 -37 -26 -62t-64 -25 q-39 0 -65.5 25t-26.5 62zM405 545h385q-136 475 -155 496h-74q-8 -9 -47 -133t-74 -244zM651 1357q0 36 26.5 61.5t63.5 25.5q38 0 65 -25.5t27 -61.5q0 -37 -27 -62t-65 -25t-64 25t-26 62z" />
<glyph unicode="&#xc5;" d="M-13 0v125l138 2q185 618 293 914l-100 2v110h280h280v-110l-101 -2q48 -132 121.5 -360.5t123.5 -390.5l49 -163l137 -2v-125h-453v127h150l-75 297h-465l-74 -298h149v-126h-453zM405 545h385q-136 475 -155 496h-74q-8 -9 -47 -133t-74 -244zM422 1359q0 67 48.5 113 t119.5 46t120 -46t49 -113t-49 -114t-120 -47q-70 0 -119 46.5t-49 114.5zM485 1359q0 -42 30.5 -70.5t74.5 -28.5t74 28.5t30 70.5t-30 70t-74 28t-74.5 -28t-30.5 -70z" />
<glyph unicode="&#xc6;" horiz-adv-x="1733" d="M-23 0l11 125l137 2q239 618 374 914l-100 2l11 110h1077l76 -321h-132l-45 194h-516l88 -371h362l-14 114h87l85 -359h-88l-49 138h-359l103 -421h491l-48 201h129l78 -328h-991l11 127h169l-70 297h-461l-102 -298h150l-11 -126h-453zM442 545h383l-8 32l-107 452h-76 q-17 -35 -65 -156t-87 -225z" />
<glyph unicode="&#xc7;" horiz-adv-x="1254" d="M70 575q0 269 151.5 432.5t419.5 163.5q117 0 217 -40.5t170 -108.5v131h130v-349h-125q-57 114 -157 173t-227 59q-185 0 -293.5 -128t-108.5 -328q0 -197 112 -328.5t296 -131.5q53 0 102.5 8.5t99.5 30.5t89 55t68.5 85.5t39.5 118.5l135 -71q-37 -168 -181.5 -267 t-363.5 -99q-262 0 -418 164t-156 430zM497 -282q7 -1 20 -1q134 0 134 70q0 53 -83 59l27 159h72l-11 -74q52 -10 81 -45.5t29 -89.5q0 -72 -57 -114.5t-163 -42.5h-49v79z" />
<glyph unicode="&#xc8;" horiz-adv-x="1119" d="M60 0v127h156v450v452h-156v124h498h473v-321h-131v194h-525v-371h362l13 114h87v-359h-88l-13 116h-359v-399h525v201h129v-328h-473h-498zM379 1488h207l140 -257h-99z" />
<glyph unicode="&#xc9;" horiz-adv-x="1119" d="M60 0v127h156v450v452h-156v124h498h473v-321h-131v194h-525v-371h362l13 114h87v-359h-88l-13 116h-359v-399h525v201h129v-328h-473h-498zM379 1231l139 257h207l-247 -257h-99z" />
<glyph unicode="&#xca;" horiz-adv-x="1119" d="M60 0v127h156v450v452h-156v124h498h473v-321h-131v194h-525v-371h362l13 114h87v-359h-88l-13 116h-359v-399h525v201h129v-328h-473h-498zM294 1229l158 255h195l164 -255h-108l-153 150l-153 -150h-103z" />
<glyph unicode="&#xcb;" horiz-adv-x="1119" d="M60 0v127h156v450v452h-156v124h498h473v-321h-131v194h-525v-371h362l13 114h87v-359h-88l-13 116h-359v-399h525v201h129v-328h-473h-498zM309 1357q0 36 26.5 61.5t65.5 25.5q37 0 63.5 -25.5t26.5 -61.5q0 -37 -26 -62t-64 -25q-39 0 -65.5 25t-26.5 62zM613 1357 q0 36 26.5 61.5t63.5 25.5q38 0 65 -25.5t27 -61.5q0 -37 -27 -62t-65 -25t-64 25t-26 62z" />
<glyph unicode="&#xcc;" horiz-adv-x="581" d="M75 0v127h134v450v452h-134v124h428v-127h-132v-449v-451h132v-126h-428zM116 1488h207l140 -257h-99z" />
<glyph unicode="&#xcd;" horiz-adv-x="581" d="M75 0v127h134v450v452h-134v124h428v-127h-132v-449v-451h132v-126h-428zM116 1231l139 257h207l-247 -257h-99z" />
<glyph unicode="&#xce;" horiz-adv-x="581" d="M31 1229l158 255h195l164 -255h-108l-153 150l-153 -150h-103zM75 0v127h134v450v452h-134v124h428v-127h-132v-449v-451h132v-126h-428z" />
<glyph unicode="&#xcf;" horiz-adv-x="581" d="M46 1357q0 36 26.5 61.5t65.5 25.5q37 0 63.5 -25.5t26.5 -61.5q0 -37 -26 -62t-64 -25q-39 0 -65.5 25t-26.5 62zM75 0v127h134v450v452h-134v124h428v-127h-132v-449v-451h132v-126h-428zM350 1357q0 36 26.5 61.5t63.5 25.5q38 0 65 -25.5t27 -61.5q0 -37 -27 -62 t-65 -25t-64 25t-26 62z" />
<glyph unicode="&#xd0;" horiz-adv-x="1273" d="M61 0v125q150 1 161 2q-2 22 -2 379h-159v144h159q0 352 2 376l-161 3v124q9 0 271.5 1.5t282.5 1.5q132 0 236 -33.5t168.5 -88.5t106.5 -130.5t58.5 -153t16.5 -163.5q0 -136 -34 -242t-104.5 -185t-187 -121t-274.5 -42q-19 0 -275 1.5t-265 1.5zM382 506l2 -379 q191 -1 223 -1q429 0 429 455q0 98 -23 177t-72 140.5t-133 95t-197 33.5l-229 -1v-376h196v-144h-196z" />
<glyph unicode="&#xd1;" horiz-adv-x="1322" d="M56 0v127h169v450v452h-169v124h382l548 -928v802h-165v126h472v-127h-173v-515v-521h-173l-588 1003v-867h169v-126h-472zM389 1297q9 105 51.5 157t104.5 52q40 0 89.5 -25t94.5 -50t74 -25q62 0 77 95h78q-7 -99 -48.5 -156t-110.5 -57q-35 0 -74.5 16t-68.5 34.5 t-62.5 34.5t-56.5 16q-31 0 -46.5 -22.5t-21.5 -69.5h-80z" />
<glyph unicode="&#xd2;" horiz-adv-x="1321" d="M66 575q0 168 70.5 302.5t207 214t316.5 79.5q136 0 249 -46.5t188.5 -127t117 -189.5t41.5 -233t-41.5 -232.5t-117 -188.5t-188.5 -126.5t-249 -46.5t-248.5 46t-187.5 126.5t-116.5 189t-41.5 232.5zM243 575q0 -194 116 -325.5t301 -131.5q124 0 220 61.5t147 165 t51 230.5q0 197 -115.5 329t-302.5 132q-123 0 -219 -61.5t-147 -166.5t-51 -233zM487 1488h207l140 -257h-99z" />
<glyph unicode="&#xd3;" horiz-adv-x="1321" d="M66 575q0 168 70.5 302.5t207 214t316.5 79.5q136 0 249 -46.5t188.5 -127t117 -189.5t41.5 -233t-41.5 -232.5t-117 -188.5t-188.5 -126.5t-249 -46.5t-248.5 46t-187.5 126.5t-116.5 189t-41.5 232.5zM243 575q0 -194 116 -325.5t301 -131.5q124 0 220 61.5t147 165 t51 230.5q0 197 -115.5 329t-302.5 132q-123 0 -219 -61.5t-147 -166.5t-51 -233zM487 1231l139 257h207l-247 -257h-99z" />
<glyph unicode="&#xd4;" horiz-adv-x="1321" d="M66 575q0 168 70.5 302.5t207 214t316.5 79.5q136 0 249 -46.5t188.5 -127t117 -189.5t41.5 -233t-41.5 -232.5t-117 -188.5t-188.5 -126.5t-249 -46.5t-248.5 46t-187.5 126.5t-116.5 189t-41.5 232.5zM243 575q0 -194 116 -325.5t301 -131.5q124 0 220 61.5t147 165 t51 230.5q0 197 -115.5 329t-302.5 132q-123 0 -219 -61.5t-147 -166.5t-51 -233zM402 1229l158 255h195l164 -255h-108l-153 150l-153 -150h-103z" />
<glyph unicode="&#xd5;" horiz-adv-x="1321" d="M66 575q0 168 70.5 302.5t207 214t316.5 79.5q136 0 249 -46.5t188.5 -127t117 -189.5t41.5 -233t-41.5 -232.5t-117 -188.5t-188.5 -126.5t-249 -46.5t-248.5 46t-187.5 126.5t-116.5 189t-41.5 232.5zM243 575q0 -194 116 -325.5t301 -131.5q124 0 220 61.5t147 165 t51 230.5q0 197 -115.5 329t-302.5 132q-123 0 -219 -61.5t-147 -166.5t-51 -233zM376 1297q9 105 51.5 157t104.5 52q40 0 89.5 -25t94.5 -50t74 -25q62 0 77 95h78q-7 -99 -48.5 -156t-110.5 -57q-35 0 -74.5 16t-68.5 34.5t-62.5 34.5t-56.5 16q-31 0 -46.5 -22.5 t-21.5 -69.5h-80z" />
<glyph unicode="&#xd6;" horiz-adv-x="1321" d="M66 575q0 168 70.5 302.5t207 214t316.5 79.5q136 0 249 -46.5t188.5 -127t117 -189.5t41.5 -233t-41.5 -232.5t-117 -188.5t-188.5 -126.5t-249 -46.5t-248.5 46t-187.5 126.5t-116.5 189t-41.5 232.5zM243 575q0 -194 116 -325.5t301 -131.5q124 0 220 61.5t147 165 t51 230.5q0 197 -115.5 329t-302.5 132q-123 0 -219 -61.5t-147 -166.5t-51 -233zM417 1357q0 36 26.5 61.5t65.5 25.5q37 0 63.5 -25.5t26.5 -61.5q0 -37 -26 -62t-64 -25q-39 0 -65.5 25t-26.5 62zM721 1357q0 36 26.5 61.5t63.5 25.5q38 0 65 -25.5t27 -61.5 q0 -37 -27 -62t-65 -25t-64 25t-26 62z" />
<glyph unicode="&#xd7;" horiz-adv-x="929" d="M93 255l286 286l-276 279l86 86l277 -277l287 286l82 -83l-286 -286l277 -278l-86 -86l-279 276l-285 -285z" />
<glyph unicode="&#xd8;" horiz-adv-x="1320" d="M65 575q0 168 70.5 302.5t207 214t316.5 79.5q129 0 234 -41l54 105l94 -43l-54 -108q127 -78 197.5 -211.5t70.5 -297.5q0 -124 -41.5 -232.5t-117 -188.5t-188.5 -126.5t-249 -46.5q-116 0 -215 34l-55 -107l-94 43l53 106q-135 75 -209 211.5t-74 306.5zM242 575 q0 -120 46.5 -219.5t129.5 -161.5l410 808q-77 34 -169 34q-123 0 -219 -61.5t-147 -166.5t-51 -233zM509 144q69 -26 150 -26q124 0 220 61.5t147 165t51 230.5q0 114 -42 211.5t-118 160.5z" />
<glyph unicode="&#xd9;" horiz-adv-x="1211" d="M34 1029v124h452v-127h-142v-648q0 -132 66 -202t192 -70q147 0 206.5 70t59.5 213v638h-142v126h451v-124l-149 -3q2 -615 2 -646q0 -105 -33 -183.5t-91 -124.5t-131.5 -68.5t-160.5 -22.5q-103 0 -181 22.5t-125 59t-76 90t-39.5 108t-10.5 121.5q0 14 0.5 175 t1.5 317v155h-150zM432 1488h207l140 -257h-99z" />
<glyph unicode="&#xda;" horiz-adv-x="1211" d="M34 1029v124h452v-127h-142v-648q0 -132 66 -202t192 -70q147 0 206.5 70t59.5 213v638h-142v126h451v-124l-149 -3q2 -615 2 -646q0 -105 -33 -183.5t-91 -124.5t-131.5 -68.5t-160.5 -22.5q-103 0 -181 22.5t-125 59t-76 90t-39.5 108t-10.5 121.5q0 14 0.5 175 t1.5 317v155h-150zM432 1231l139 257h207l-247 -257h-99z" />
<glyph unicode="&#xdb;" horiz-adv-x="1211" d="M34 1029v124h452v-127h-142v-648q0 -132 66 -202t192 -70q147 0 206.5 70t59.5 213v638h-142v126h451v-124l-149 -3q2 -615 2 -646q0 -105 -33 -183.5t-91 -124.5t-131.5 -68.5t-160.5 -22.5q-103 0 -181 22.5t-125 59t-76 90t-39.5 108t-10.5 121.5q0 14 0.5 175 t1.5 317v155h-150zM347 1229l158 255h195l164 -255h-108l-153 150l-153 -150h-103z" />
<glyph unicode="&#xdc;" horiz-adv-x="1211" d="M34 1029v124h452v-127h-142v-648q0 -132 66 -202t192 -70q147 0 206.5 70t59.5 213v638h-142v126h451v-124l-149 -3q2 -615 2 -646q0 -105 -33 -183.5t-91 -124.5t-131.5 -68.5t-160.5 -22.5q-103 0 -181 22.5t-125 59t-76 90t-39.5 108t-10.5 121.5q0 14 0.5 175 t1.5 317v155h-150zM362 1357q0 36 26.5 61.5t65.5 25.5q37 0 63.5 -25.5t26.5 -61.5q0 -37 -26 -62t-64 -25q-39 0 -65.5 25t-26.5 62zM666 1357q0 36 26.5 61.5t63.5 25.5q38 0 65 -25.5t27 -61.5q0 -37 -27 -62t-65 -25t-64 25t-26 62z" />
<glyph unicode="&#xdd;" horiz-adv-x="1130" d="M-18 1029v124h472v-127h-150l274 -378l257 379h-150v126h460v-127h-156l-343 -496v-404h164v-126h-483v127h159v403l-358 499h-146zM390 1231l139 257h207l-247 -257h-99z" />
<glyph unicode="&#xde;" horiz-adv-x="1031" d="M62 0v127h151v355v546h-151v127h311v-143h222q92 0 163.5 -19.5t114.5 -50.5t70.5 -74t37.5 -84.5t10 -87.5q0 -105 -59.5 -176t-159 -102.5t-234.5 -31.5h-163v-260h158v-126h-471zM373 511h178q152 0 213.5 49.5t61.5 136.5q0 91 -59 138.5t-167 47.5l-227 -1v-371z " />
<glyph unicode="&#xdf;" horiz-adv-x="1082" d="M22 0v125h150v689q0 196 95.5 300.5t288.5 104.5q161 0 260 -80.5t99 -211.5q0 -167 -157 -235v-3q126 -26 196.5 -117t70.5 -226q0 -160 -91.5 -259.5t-237.5 -99.5q-76 0 -133 27v119q41 -23 106 -23q89 0 149.5 63.5t60.5 172.5q0 122 -75 196.5t-241 74.5v116 q107 0 158 53.5t51 130.5q0 80 -59 129.5t-157 49.5q-244 0 -244 -278v-693h131v-125h-421z" />
<glyph unicode="&#xe0;" horiz-adv-x="889" d="M55 216q0 254 347 254q93 0 193 -20v97q0 79 -54.5 116.5t-141.5 37.5q-127 0 -185 -84l-140 39q95 163 345 163q91 0 156.5 -21.5t101 -60t51.5 -83.5t16 -100v-433h144v-121h-277q-1 83 -2 83q-79 -58 -143 -81.5t-139 -23.5q-122 0 -197 70.5t-75 167.5zM196 216 q0 -55 40.5 -91t111.5 -36q67 0 134.5 24t112.5 65v174q-16 0 -79 8t-104 8q-45 0 -79 -5.5t-67.5 -21t-51.5 -47t-18 -78.5zM269 1171h207l140 -257h-99z" />
<glyph unicode="&#xe1;" horiz-adv-x="889" d="M55 216q0 254 347 254q93 0 193 -20v97q0 79 -54.5 116.5t-141.5 37.5q-127 0 -185 -84l-140 39q95 163 345 163q91 0 156.5 -21.5t101 -60t51.5 -83.5t16 -100v-433h144v-121h-277q-1 83 -2 83q-79 -58 -143 -81.5t-139 -23.5q-122 0 -197 70.5t-75 167.5zM196 216 q0 -55 40.5 -91t111.5 -36q67 0 134.5 24t112.5 65v174q-16 0 -79 8t-104 8q-45 0 -79 -5.5t-67.5 -21t-51.5 -47t-18 -78.5zM269 914l139 257h207l-247 -257h-99z" />
<glyph unicode="&#xe2;" horiz-adv-x="889" d="M55 216q0 254 347 254q93 0 193 -20v97q0 79 -54.5 116.5t-141.5 37.5q-127 0 -185 -84l-140 39q95 163 345 163q91 0 156.5 -21.5t101 -60t51.5 -83.5t16 -100v-433h144v-121h-277q-1 83 -2 83q-79 -58 -143 -81.5t-139 -23.5q-122 0 -197 70.5t-75 167.5zM184 912 l158 255h195l164 -255h-108l-153 150l-153 -150h-103zM196 216q0 -55 40.5 -91t111.5 -36q67 0 134.5 24t112.5 65v174q-16 0 -79 8t-104 8q-45 0 -79 -5.5t-67.5 -21t-51.5 -47t-18 -78.5z" />
<glyph unicode="&#xe3;" horiz-adv-x="889" d="M55 216q0 254 347 254q93 0 193 -20v97q0 79 -54.5 116.5t-141.5 37.5q-127 0 -185 -84l-140 39q95 163 345 163q91 0 156.5 -21.5t101 -60t51.5 -83.5t16 -100v-433h144v-121h-277q-1 83 -2 83q-79 -58 -143 -81.5t-139 -23.5q-122 0 -197 70.5t-75 167.5zM157 980 q9 105 51.5 157t104.5 52q40 0 89.5 -25t94.5 -50t74 -25q62 0 77 95h78q-7 -99 -48.5 -156t-110.5 -57q-44 0 -94.5 25.5t-94.5 50.5t-73 25q-31 0 -46.5 -22.5t-21.5 -69.5h-80zM196 216q0 -55 40.5 -91t111.5 -36q67 0 134.5 24t112.5 65v174q-16 0 -79 8t-104 8 q-45 0 -79 -5.5t-67.5 -21t-51.5 -47t-18 -78.5z" />
<glyph unicode="&#xe4;" horiz-adv-x="889" d="M55 216q0 254 347 254q93 0 193 -20v97q0 79 -54.5 116.5t-141.5 37.5q-127 0 -185 -84l-140 39q95 163 345 163q91 0 156.5 -21.5t101 -60t51.5 -83.5t16 -100v-433h144v-121h-277q-1 83 -2 83q-79 -58 -143 -81.5t-139 -23.5q-122 0 -197 70.5t-75 167.5zM196 216 q0 -55 40.5 -91t111.5 -36q67 0 134.5 24t112.5 65v174q-16 0 -79 8t-104 8q-45 0 -79 -5.5t-67.5 -21t-51.5 -47t-18 -78.5zM199 1040q0 36 26.5 61.5t65.5 25.5q37 0 63.5 -25.5t26.5 -61.5q0 -37 -26 -62t-64 -25q-39 0 -65.5 25t-26.5 62zM503 1040q0 36 26.5 61.5 t63.5 25.5q38 0 65 -25.5t27 -61.5q0 -37 -27 -62t-65 -25t-64 25t-26 62z" />
<glyph unicode="&#xe5;" horiz-adv-x="889" d="M55 216q0 254 347 254q93 0 193 -20v97q0 79 -54.5 116.5t-141.5 37.5q-127 0 -185 -84l-140 39q95 163 345 163q91 0 156.5 -21.5t101 -60t51.5 -83.5t16 -100v-433h144v-121h-277q-1 83 -2 83q-79 -58 -143 -81.5t-139 -23.5q-122 0 -197 70.5t-75 167.5zM196 216 q0 -55 40.5 -91t111.5 -36q67 0 134.5 24t112.5 65v174q-16 0 -79 8t-104 8q-45 0 -79 -5.5t-67.5 -21t-51.5 -47t-18 -78.5zM273 1042q0 67 48.5 113t119.5 46t120 -46t49 -113t-49 -114t-120 -47q-70 0 -119 46.5t-49 114.5zM336 1042q0 -42 30.5 -70.5t74.5 -28.5 t74 28.5t30 70.5t-30 70t-74 28t-74.5 -28t-30.5 -70z" />
<glyph unicode="&#xe6;" horiz-adv-x="1453" d="M55 221q0 249 347 249q93 0 193 -20v97q0 83 -54.5 122.5t-141.5 39.5q-127 0 -185 -83l-140 39q94 162 345 162q209 0 283 -147q123 147 310 147q92 0 166 -36t120.5 -98t71 -141.5t24.5 -169.5v-17l-320 -2l-315 2q14 -121 80.5 -192.5t179.5 -71.5q74 0 139.5 30.5 t107.5 85.5l128 -56q-55 -87 -153.5 -135.5t-224.5 -48.5q-203 0 -329 126q-103 -62 -181.5 -89.5t-178.5 -27.5q-122 0 -197 69.5t-75 165.5zM196 221q0 -54 40.5 -89.5t111.5 -35.5q66 0 133.5 22.5t113.5 59.5v174q-16 0 -79 8t-104 8q-216 0 -216 -147zM763 467h488 q-16 105 -78.5 175.5t-158.5 70.5q-106 0 -170.5 -67.5t-80.5 -178.5z" />
<glyph unicode="&#xe7;" horiz-adv-x="900" d="M58 408q0 109 49 202t142.5 151t211.5 58q166 0 226 -86l1 72h133v-288h-129q-16 89 -68 131t-152 42q-121 0 -188 -77.5t-67 -202.5q0 -135 69 -217.5t190 -82.5q169 0 245 133l121 -55q-46 -100 -141.5 -153.5t-228.5 -53.5q-85 0 -155.5 25.5t-117.5 68t-79.5 98.5 t-47 115t-14.5 120zM306 -282q7 -1 20 -1q134 0 134 70q0 53 -83 59l27 159h72l-11 -74q52 -10 81 -45.5t29 -89.5q0 -72 -57 -114.5t-163 -42.5h-49v79z" />
<glyph unicode="&#xe8;" horiz-adv-x="955" d="M55 402q0 182 126.5 299.5t316.5 117.5q96 0 173.5 -35.5t126.5 -96t74.5 -138.5t25.5 -167v-17l-337 -2l-342 2q16 -120 89 -189.5t198 -69.5q80 0 149.5 28.5t114.5 82.5l128 -56q-58 -86 -161 -133t-235 -47q-203 0 -325 120.5t-122 300.5zM223 467h269h262 q-17 102 -83.5 169.5t-170.5 67.5q-116 0 -187.5 -65t-89.5 -172zM306 1171h207l140 -257h-99z" />
<glyph unicode="&#xe9;" horiz-adv-x="955" d="M55 402q0 182 126.5 299.5t316.5 117.5q96 0 173.5 -35.5t126.5 -96t74.5 -138.5t25.5 -167v-17l-337 -2l-342 2q16 -120 89 -189.5t198 -69.5q80 0 149.5 28.5t114.5 82.5l128 -56q-58 -86 -161 -133t-235 -47q-203 0 -325 120.5t-122 300.5zM223 467h269h262 q-17 102 -83.5 169.5t-170.5 67.5q-116 0 -187.5 -65t-89.5 -172zM306 914l139 257h207l-247 -257h-99z" />
<glyph unicode="&#xea;" horiz-adv-x="955" d="M55 402q0 182 126.5 299.5t316.5 117.5q96 0 173.5 -35.5t126.5 -96t74.5 -138.5t25.5 -167v-17l-337 -2l-342 2q16 -120 89 -189.5t198 -69.5q80 0 149.5 28.5t114.5 82.5l128 -56q-58 -86 -161 -133t-235 -47q-203 0 -325 120.5t-122 300.5zM221 912l158 255h195 l164 -255h-108l-153 150l-153 -150h-103zM223 467h269h262q-17 102 -83.5 169.5t-170.5 67.5q-116 0 -187.5 -65t-89.5 -172z" />
<glyph unicode="&#xeb;" horiz-adv-x="955" d="M55 402q0 182 126.5 299.5t316.5 117.5q96 0 173.5 -35.5t126.5 -96t74.5 -138.5t25.5 -167v-17l-337 -2l-342 2q16 -120 89 -189.5t198 -69.5q80 0 149.5 28.5t114.5 82.5l128 -56q-58 -86 -161 -133t-235 -47q-203 0 -325 120.5t-122 300.5zM223 467h269h262 q-17 102 -83.5 169.5t-170.5 67.5q-116 0 -187.5 -65t-89.5 -172zM236 1040q0 36 26.5 61.5t65.5 25.5q37 0 63.5 -25.5t26.5 -61.5q0 -37 -26 -62t-64 -25q-39 0 -65.5 25t-26.5 62zM540 1040q0 36 26.5 61.5t63.5 25.5q38 0 65 -25.5t27 -61.5q0 -37 -27 -62t-65 -25 t-64 25t-26 62z" />
<glyph unicode="&#xec;" horiz-adv-x="509" d="M59 0v124h135v561h-135v120h284v-683h136v-122h-420zM95 1171h207l140 -257h-99z" />
<glyph unicode="&#xed;" horiz-adv-x="509" d="M59 0v124h135v561h-135v120h284v-683h136v-122h-420zM95 914l139 257h207l-247 -257h-99z" />
<glyph unicode="&#xee;" horiz-adv-x="509" d="M10 912l158 255h195l164 -255h-108l-153 150l-153 -150h-103zM59 0v124h135v561h-135v120h284v-683h136v-122h-420z" />
<glyph unicode="&#xef;" horiz-adv-x="509" d="M25 1040q0 36 26.5 61.5t65.5 25.5q37 0 63.5 -25.5t26.5 -61.5q0 -37 -26 -62t-64 -25q-39 0 -65.5 25t-26.5 62zM59 0v124h135v561h-135v120h284v-683h136v-122h-420zM329 1040q0 36 26.5 61.5t63.5 25.5q38 0 65 -25.5t27 -61.5q0 -37 -27 -62t-65 -25t-64 25t-26 62z " />
<glyph unicode="&#xf0;" horiz-adv-x="932" d="M64 367q0 153 95 252t248 99q87 0 167.5 -29.5t127.5 -81.5q0 141 -29 239l-213 -42l-20 101l190 38q-68 108 -189 108q-87 0 -150 -54.5t-76 -144.5l-130 3q5 142 97 229t242 87q230 0 339 -202l183 37l21 -101l-163 -33q42 -129 42 -304q0 -283 -105 -435t-308 -152 q-169 0 -269 109.5t-100 276.5zM203 358q0 -110 62 -181t174 -71q122 0 181 85.5t76 265.5q-53 60 -131 93t-141 33q-103 0 -162 -62.5t-59 -162.5z" />
<glyph unicode="&#xf1;" horiz-adv-x="1031" d="M57 685v120h296q2 -87 4 -104q80 62 145.5 90t137.5 28q110 0 173.5 -69t63.5 -188l-3 -439l145 -2v-121h-402v120h110v387q0 93 -28 138.5t-97 45.5q-121 0 -245 -141v-428h145v-122h-439v123h143v562h-149zM235 980q9 105 51.5 157t104.5 52q40 0 89.5 -25t94.5 -50 t74 -25q62 0 77 95h78q-7 -99 -48.5 -156t-110.5 -57q-44 0 -94.5 25.5t-94.5 50.5t-73 25q-31 0 -46.5 -22.5t-21.5 -69.5h-80z" />
<glyph unicode="&#xf2;" horiz-adv-x="966" d="M57 402q0 178 117.5 297.5t309.5 119.5q191 0 308.5 -120t117.5 -297q0 -178 -118.5 -299.5t-309.5 -121.5q-190 0 -307.5 121.5t-117.5 299.5zM216 402q0 -124 73 -204t193 -80q122 0 195 80t73 204q0 125 -73.5 207t-194.5 82q-120 0 -193 -82t-73 -207zM309 1171h207 l140 -257h-99z" />
<glyph unicode="&#xf3;" horiz-adv-x="966" d="M57 402q0 178 117.5 297.5t309.5 119.5q191 0 308.5 -120t117.5 -297q0 -178 -118.5 -299.5t-309.5 -121.5q-190 0 -307.5 121.5t-117.5 299.5zM216 402q0 -124 73 -204t193 -80q122 0 195 80t73 204q0 125 -73.5 207t-194.5 82q-120 0 -193 -82t-73 -207zM310 914 l139 257h207l-247 -257h-99z" />
<glyph unicode="&#xf4;" horiz-adv-x="966" d="M57 402q0 178 117.5 297.5t309.5 119.5q191 0 308.5 -120t117.5 -297q0 -178 -118.5 -299.5t-309.5 -121.5q-190 0 -307.5 121.5t-117.5 299.5zM216 402q0 -124 73 -204t193 -80q122 0 195 80t73 204q0 125 -73.5 207t-194.5 82q-120 0 -193 -82t-73 -207zM224 912 l158 255h195l164 -255h-108l-153 150l-153 -150h-103z" />
<glyph unicode="&#xf5;" horiz-adv-x="966" d="M57 402q0 178 117.5 297.5t309.5 119.5q191 0 308.5 -120t117.5 -297q0 -178 -118.5 -299.5t-309.5 -121.5q-190 0 -307.5 121.5t-117.5 299.5zM199 980q9 105 51.5 157t104.5 52q40 0 89.5 -25t94.5 -50t74 -25q62 0 77 95h78q-7 -99 -48.5 -156t-110.5 -57 q-44 0 -94.5 25.5t-94.5 50.5t-73 25q-31 0 -46.5 -22.5t-21.5 -69.5h-80zM216 402q0 -124 73 -204t193 -80q122 0 195 80t73 204q0 125 -73.5 207t-194.5 82q-120 0 -193 -82t-73 -207z" />
<glyph unicode="&#xf6;" horiz-adv-x="966" d="M57 402q0 178 117.5 297.5t309.5 119.5q191 0 308.5 -120t117.5 -297q0 -178 -118.5 -299.5t-309.5 -121.5q-190 0 -307.5 121.5t-117.5 299.5zM216 402q0 -124 73 -204t193 -80q122 0 195 80t73 204q0 125 -73.5 207t-194.5 82q-120 0 -193 -82t-73 -207zM240 1040 q0 36 26.5 61.5t65.5 25.5q37 0 63.5 -25.5t26.5 -61.5q0 -37 -26 -62t-64 -25q-39 0 -65.5 25t-26.5 62zM544 1040q0 36 26.5 61.5t63.5 25.5q38 0 65 -25.5t27 -61.5q0 -37 -27 -62t-65 -25t-64 25t-26 62z" />
<glyph unicode="&#xf7;" horiz-adv-x="1164" d="M115 513v119h935v-119h-935zM509 216q0 32 21.5 54t52.5 22t52.5 -22t21.5 -54t-21.5 -54t-52.5 -22t-52.5 22t-21.5 54zM509 928q0 32 21.5 54t52.5 22t52.5 -22t21.5 -54q0 -31 -21.5 -53t-52.5 -22t-52.5 21.5t-21.5 53.5z" />
<glyph unicode="&#xf8;" horiz-adv-x="967" d="M58 402q0 179 118 302t309 123q85 0 153 -25l64 124l94 -43l-65 -127q85 -58 132.5 -151.5t47.5 -202.5q0 -178 -118.5 -301.5t-309.5 -123.5q-71 0 -140 21l-64 -124l-94 43l63 123q-90 57 -140 153t-50 209zM217 402q0 -147 98 -231l259 506q-44 14 -91 14 q-120 0 -193 -82t-73 -207zM408 123q34 -9 75 -9q121 0 194.5 81.5t73.5 206.5q0 139 -88 221z" />
<glyph unicode="&#xf9;" horiz-adv-x="994" d="M32 685v120h272v-537q0 -81 29 -121.5t96 -40.5q68 0 132 39.5t112 104.5v433h-145v122h296v-684h146v-121h-292q-3 83 -5 100q-133 -119 -272 -119q-248 0 -248 280l2 421zM316 1171h207l140 -257h-99z" />
<glyph unicode="&#xfa;" horiz-adv-x="994" d="M32 685v120h272v-537q0 -81 29 -121.5t96 -40.5q68 0 132 39.5t112 104.5v433h-145v122h296v-684h146v-121h-292q-3 83 -5 100q-133 -119 -272 -119q-248 0 -248 280l2 421zM317 914l139 257h207l-247 -257h-99z" />
<glyph unicode="&#xfb;" horiz-adv-x="994" d="M32 685v120h272v-537q0 -81 29 -121.5t96 -40.5q68 0 132 39.5t112 104.5v433h-145v122h296v-684h146v-121h-292q-3 83 -5 100q-133 -119 -272 -119q-248 0 -248 280l2 421zM232 912l158 255h195l164 -255h-108l-153 150l-153 -150h-103z" />
<glyph unicode="&#xfc;" horiz-adv-x="994" d="M32 685v120h272v-537q0 -81 29 -121.5t96 -40.5q68 0 132 39.5t112 104.5v433h-145v122h296v-684h146v-121h-292q-3 83 -5 100q-133 -119 -272 -119q-248 0 -248 280l2 421zM247 1040q0 36 26.5 61.5t65.5 25.5q37 0 63.5 -25.5t26.5 -61.5q0 -37 -26 -62t-64 -25 q-39 0 -65.5 25t-26.5 62zM551 1040q0 36 26.5 61.5t63.5 25.5q38 0 65 -25.5t27 -61.5q0 -37 -27 -62t-65 -25t-64 25t-26 62z" />
<glyph unicode="&#xfd;" horiz-adv-x="982" d="M-1 685v120h406v-123h-108l202 -520h20l86 270l75 251h-115v122h413v-123h-129l-216 -646q-68 -191 -93 -242q-54 -112 -131 -145q-43 -19 -100 -19q-33 0 -69.5 3t-56.5 7l-20 3l4 122q56 -10 110 -10q52 0 80.5 21t57 86.5t68.5 208.5l-95 -1l-264 615h-125zM310 914 l139 257h207l-247 -257h-99z" />
<glyph unicode="&#xfe;" horiz-adv-x="1026" d="M-22 -102l150 1q-2 626 -2 681q0 446 2 462l-147 3v121h295q-2 -426 -2 -459q123 120 297 120q180 0 288.5 -119.5t108.5 -297.5q0 -180 -109.5 -302t-289.5 -122q-87 0 -165 31t-124 84l-1 -325h-301v122zM279 343q0 -99 73 -165.5t187 -66.5q124 0 197 85t73 217 q0 138 -78.5 211.5t-187.5 73.5q-110 0 -182.5 -65t-81.5 -169v-121z" />
<glyph unicode="&#xff;" horiz-adv-x="982" d="M-1 685v120h406v-123h-108l202 -520h20l86 270l75 251h-115v122h413v-123h-129l-216 -646q-68 -191 -93 -242q-54 -112 -131 -145q-43 -19 -100 -19q-33 0 -69.5 3t-56.5 7l-20 3l4 122q56 -10 110 -10q52 0 80.5 21t57 86.5t68.5 208.5l-95 -1l-264 615h-125zM240 1040 q0 36 26.5 61.5t65.5 25.5q37 0 63.5 -25.5t26.5 -61.5q0 -37 -26 -62t-64 -25q-39 0 -65.5 25t-26.5 62zM544 1040q0 36 26.5 61.5t63.5 25.5q38 0 65 -25.5t27 -61.5q0 -37 -27 -62t-65 -25t-64 25t-26 62z" />
<glyph unicode="&#x152;" horiz-adv-x="1920" d="M67 575q0 125 39.5 234t111.5 189.5t180 126.5t238 46q238 0 381 -114v96h815v-321h-132v194h-524v-371h362l13 114h87v-359h-88l-13 116h-359v-399h525v201h129v-328h-815v95q-143 -114 -381 -114q-130 0 -238 46t-180 126.5t-111.5 189t-39.5 232.5zM245 575 q0 -113 35 -201.5t95.5 -142.5t136.5 -81.5t162 -27.5q186 0 343 113v698q-176 107 -354 107q-87 0 -161.5 -28.5t-132.5 -84t-91 -146t-33 -206.5z" />
<glyph unicode="&#x153;" horiz-adv-x="1648" d="M56 402q0 179 118 302t309 123q111 0 200.5 -50t146.5 -138q60 89 154 138.5t208 49.5q96 0 173 -36t126 -98t74.5 -141.5t25.5 -169.5v-17l-337 -2l-341 2q16 -121 89 -192.5t197 -71.5q79 0 149 30.5t115 85.5l128 -56q-58 -87 -161 -135.5t-234 -48.5q-120 0 -214 50 t-152 137q-57 -87 -147 -137t-202 -50q-190 0 -307.5 123.5t-117.5 301.5zM215 402q0 -125 73 -206.5t193 -81.5q121 0 194.5 81.5t73.5 206.5t-73.5 207t-194.5 82q-120 0 -193 -82t-73 -207zM917 467h531q-18 106 -84 176t-170 70q-117 0 -188 -67.5t-89 -178.5z" />
<glyph unicode="&#x178;" horiz-adv-x="1130" d="M-18 1029v124h472v-127h-150l274 -378l257 379h-150v126h460v-127h-156l-343 -496v-404h164v-126h-483v127h159v403l-358 499h-146zM320 1357q0 36 26.5 61.5t65.5 25.5q37 0 63.5 -25.5t26.5 -61.5q0 -37 -26 -62t-64 -25q-39 0 -65.5 25t-26.5 62zM624 1357 q0 36 26.5 61.5t63.5 25.5q38 0 65 -25.5t27 -61.5q0 -37 -27 -62t-65 -25t-64 25t-26 62z" />
<glyph unicode="&#x2c6;" horiz-adv-x="593" d="M38 912l158 255h195l164 -255h-108l-153 150l-153 -150h-103z" />
<glyph unicode="&#x2dc;" horiz-adv-x="587" d="M9 980q9 105 51.5 157t104.5 52q40 0 89.5 -25t94.5 -50t74 -25q62 0 77 95h78q-7 -99 -48.5 -156t-110.5 -57q-44 0 -94.5 25.5t-94.5 50.5t-73 25q-31 0 -46.5 -22.5t-21.5 -69.5h-80z" />
<glyph unicode="&#x2000;" horiz-adv-x="759" />
<glyph unicode="&#x2001;" horiz-adv-x="1518" />
<glyph unicode="&#x2002;" horiz-adv-x="759" />
<glyph unicode="&#x2003;" horiz-adv-x="1518" />
<glyph unicode="&#x2004;" horiz-adv-x="506" />
<glyph unicode="&#x2005;" horiz-adv-x="379" />
<glyph unicode="&#x2006;" horiz-adv-x="253" />
<glyph unicode="&#x2007;" horiz-adv-x="253" />
<glyph unicode="&#x2008;" horiz-adv-x="189" />
<glyph unicode="&#x2009;" horiz-adv-x="303" />
<glyph unicode="&#x200a;" horiz-adv-x="84" />
<glyph unicode="&#x2010;" horiz-adv-x="719" d="M101 340v144h517v-144h-517z" />
<glyph unicode="&#x2011;" horiz-adv-x="719" d="M101 340v144h517v-144h-517z" />
<glyph unicode="&#x2012;" horiz-adv-x="719" d="M101 340v144h517v-144h-517z" />
<glyph unicode="&#x2013;" horiz-adv-x="1089" d="M108 367v129h872v-129h-872z" />
<glyph unicode="&#x2014;" horiz-adv-x="1944" d="M108 367v129h1727v-129h-1727z" />
<glyph unicode="&#x2018;" horiz-adv-x="382" d="M104 765v206q0 109 42 166.5t136 58.5v-81q-50 -9 -69.5 -41.5t-20.5 -110.5h84v-198h-172z" />
<glyph unicode="&#x2019;" horiz-adv-x="364" d="M102 765v82q50 9 70 41.5t21 110.5h-85v197h172v-205q0 -110 -41.5 -167t-136.5 -59z" />
<glyph unicode="&#x201a;" horiz-adv-x="389" d="M104 -152q50 9 70 41.5t21 110.5h-85v197h172v-206q0 -109 -41.5 -165.5t-136.5 -58.5v81z" />
<glyph unicode="&#x201c;" horiz-adv-x="720" d="M105 765v206q0 109 41 166.5t136 58.5v-81q-50 -9 -69 -41.5t-20 -110.5h84v-198h-172zM444 765v206q0 109 41 166.5t136 58.5v-81q-50 -9 -69.5 -42t-19.5 -110h84v-198h-172z" />
<glyph unicode="&#x201d;" horiz-adv-x="704" d="M104 765v82q50 9 69.5 42t20.5 110h-85v197h172v-205q0 -110 -41 -167t-136 -59zM442 765v82q50 9 69.5 41.5t20.5 110.5h-84v197h172v-205q0 -110 -41.5 -167t-136.5 -59z" />
<glyph unicode="&#x201e;" horiz-adv-x="785" d="M104 -152q51 9 70 41.5t21 110.5h-85v197h172v-206q0 -109 -41.5 -165.5t-136.5 -58.5v81zM501 -152q50 9 69.5 42t19.5 110h-84v197h172v-206q0 -109 -41 -165.5t-136 -58.5v81z" />
<glyph unicode="&#x2022;" horiz-adv-x="559" d="M80 562q0 81 58 136.5t142 55.5t142.5 -55.5t58.5 -136.5q0 -80 -59 -137t-142 -57q-84 0 -142 56.5t-58 137.5z" />
<glyph unicode="&#x2026;" horiz-adv-x="1374" d="M101 0v212h212v-212h-212zM581 0v212h212v-212h-212zM1061 0v212h212v-212h-212z" />
<glyph unicode="&#x202f;" horiz-adv-x="303" />
<glyph unicode="&#x2039;" horiz-adv-x="534" d="M61 418l264 419h143l-258 -419l258 -418h-143z" />
<glyph unicode="&#x203a;" horiz-adv-x="533" d="M65 0l258 418l-258 419h143l264 -419l-264 -418h-143z" />
<glyph unicode="&#x205f;" horiz-adv-x="379" />
<glyph unicode="&#x20ac;" horiz-adv-x="1027" d="M59 430v114h106q0 3 -0.5 26.5t-0.5 25.5q0 47 2 62h-107v113h115q24 207 126 325t284 118q143 0 215 -103v92h129v-337h-129q-15 102 -74 165.5t-140 63.5q-118 0 -182 -87t-82 -237h326v-113h-335v-114h335v-114h-324q20 -149 88 -237.5t187 -88.5q80 0 136 63t87 166 l129 -58q-36 -136 -126.5 -215t-230.5 -79q-185 0 -289 118t-130 331h-115z" />
<glyph unicode="&#x2122;" horiz-adv-x="1547" d="M92 1101v95h563v-95h-227v-607h-107v607h-229zM736 494v702h159l175 -561h3l172 561h159v-702h-97v601h-3l-189 -601h-90l-187 601h-4v-601h-98z" />
<glyph unicode="&#x25fc;" horiz-adv-x="805" d="M0 0v805h805v-805h-805z" />
<glyph unicode="&#xfb01;" horiz-adv-x="1027" d="M56 683v122h129q0 131 1 133q0 121 62.5 184.5t169.5 63.5q77 0 128.5 -41.5t63.5 -115.5l-128 -25q-7 67 -57 67q-35 0 -55 -16t-27 -49t-8 -83t1 -118h525v-683h136v-122h-421v124h135v561l-80 -2h-295v-561h162v-122h-433v123h120v560h-129zM693 1067q0 37 26.5 62.5 t64.5 25.5t65 -25.5t27 -62.5q0 -36 -27 -61.5t-65 -25.5t-64.5 25.5t-26.5 61.5z" />
<glyph unicode="&#xfb02;" horiz-adv-x="1041" d="M56 683v122h129l1 64q1 317 230 317q166 0 460 -102v-962h133v-122h-434v123h152v909q-245 20 -282 20q-65 0 -86.5 -52.5t-22.5 -194.5h153v-122h-153v-561h162v-122h-433v123h120v560h-129z" />
</font>
</defs>
</svg>
